To download this torrent La La Land 2016 BluRay 1080p x264 AAC 5 1 - Hon3y, you need a BitTorrent client!

"La La Land 2016 BluRay 1080p x264 AAC 5 1 - Hon3y"

Hash: b3e63043832523b51ab20f6e675bc6893fe4cfcf

Found on: Torrentbit, GlodlsTo, Limetorrents
Torrent Details Torrent found on:

Format : Matroska Format version : Version 4 / Version 2 File size : 2.96 GiB Duration : 2 h 7 min Overall bit rate : 3 320 kb/s Encoded date : UTC 2017-07-03 12:50:41 Video ID : 1 Format : AVC Format/Info : Advanced Video Codec Format profile : /* */ Format settings, CABAC : Yes Format settings, ReFrames : 5 frames Codec ID : V_MPEG4/ISO/AVC Duration : 2 h 7 min Bit rate : 3 000 kb/s Width : 1 920 pixels Height : 752 pixels Display aspect ratio : 2.553 Frame rate mode : Constant Frame rate : 23.976 (24000/1001) FPS Audio ID : 2 Format : AAC Format/Info : Advanced Audio Codec Format profile : LC Codec ID : A_AAC Duration : 2 h 7 min Bit rate : 320 kb/s Channel(s) : 6 channels Channel positions : Front: L C R, Side: L R, LFE Sampling rate : 48.0 kHz Frame rate : 46.875 FPS (1024 spf) Compression mode : Lossy Delay relative to video : -21 ms Stream size : 292 MiB (10%) Title : Surround Language : English Menu 00:00:00.000 : :Chapter 1 00:07:06.927 : :Chapter 2 00:17:30.883 : :Chapter 3 00:26:05.856 : :Chapter 4 00:31:14.039 : :Chapter 5 00:39:29.075 : :Chapter 6 00:46:17.566 : :Chapter 7 00:52:11.170 : :Chapter 8 00:58:50.527 : :Chapter 9 01:05:58.705 : :Chapter 10 01:13:01.502 : :Chapter 11 01:24:16.510 : :Chapter 12 01:31:50.922 : :Chapter 13 01:41:11.107 : :Chapter 14 01:46:07.611 : :Chapter 15 01:56:19.598 : :Chapter 16 http://www.hdsector.com/

Torrentbit

Format : Matroska
Format version : Version 4 / Version 2
File size : 2.96 GiB
Duration : 2 h 7 min
Overall bit rate : 3 320 kb/s
Encoded date : UTC 2017-07-03 12:50:41
Video
ID : 1
Format : AVC
Format/Info : Advanced Video Codec
Format profile : /* */
Format settings, CABAC : Yes
Format settings, ReFrames : 5 frames
Codec ID : V_MPEG4/ISO/AVC
Duration : 2 h 7 min
Bit rate : 3 000 kb/s
Width : 1 920 pixels
Height : 752 pixels
Display aspect ratio : 2.553
Frame rate mode : Constant
Frame rate : 23.976 (24000/1001) FPS
Audio
ID : 2
Format : AAC
Format/Info : Advanced Audio Codec
Format profile : LC
Codec ID : A_AAC
Duration : 2 h 7 min
Bit rate : 320 kb/s
Channel(s) : 6 channels
Channel positions : Front: L C R, Side: L R, LFE
Sampling rate : 48.0 kHz
Frame rate : 46.875 FPS (1024 spf)
Compression mode : Lossy
Delay relative to video : -21 ms
Stream size : 292 MiB (10%)
Title : Surround
Language : English
Menu
00:00:00.000 : :Chapter 1
00:07:06.927 : :Chapter 2
00:17:30.883 : :Chapter 3
00:26:05.856 : :Chapter 4
00:31:14.039 : :Chapter 5
00:39:29.075 : :Chapter 6
00:46:17.566 : :Chapter 7
00:52:11.170 : :Chapter 8
00:58:50.527 : :Chapter 9
01:05:58.705 : :Chapter 10
01:13:01.502 : :Chapter 11
01:24:16.510 : :Chapter 12
01:31:50.922 : :Chapter 13
01:41:11.107 : :Chapter 14
01:46:07.611 : :Chapter 15
01:56:19.598 : :Chapter 16
http://www.hdsector.com/

GlodlsTo

This torrent will be downloaded from trackers:
http://bigfoot1942.sektori.org:6969/announce
http://announce.torrentsmd.com:6969/announce
http://bigfoot1942.sektori.org:6969/announce
http://bt.artvid.ru:6969/announce
http://ipv4.tracker.harry.lu/announce
http://ipv4.tracker.harry.lu:80/announce
http://open.acgtracker.com:1096/announce
http://open.kickasstracker.com/announce
http://opentracker-milanesi.rhcloud.com/announce
http://opentracker-milanesi.rhcloud.com:80/announce
http://t.nyaatracker.com/announce
http://t.nyaatracker.com:80/announce
http://tracker.devil-torrents.pl/announce
http://tracker.devil-torrents.pl:80/announce
http://tracker.mg64.net:6881/announce
http://tracker.opentrackr.org/announce
http://tracker.opentrackr.org:1337/announce
http://tracker.trackerfix.com/announce
http://tracker2.wasabii.com.tw:6969/announce
https://open.kickasstracker.com:443/announce
https://opentracker-milanesi.rhcloud.com:443/announce
udp://9.rarbg.com:2710/announce
udp://9.rarbg.me:2710/announce
udp://9.rarbg.to:2710/announce
udp://asnet.pw:2710/announce
udp://castradio.net:6969/announce
udp://eddie4.nl:6969/announce
udp://exodus.desync.com:6969/announce
udp://explodie.org:6969/announce
udp://glotorrents.pw:6969/announce
udp://inferno.demonoid.ooo:3389/announce
udp://ipv4.tracker.harry.lu:80/announce
udp://mgtracker.org:6969/announce
udp://p4p.arenabg.ch:1337/announce
udp://p4p.arenabg.com:1337
udp://torrent.gresille.org:80/announce
udp://tracker.blackunicorn.xyz:6969/announce
udp://tracker.coppersurfer.tk:6969/announce
udp://tracker.internetwarriors.net:1337/announce
udp://tracker.leechers-paradise.org:6969/announce
udp://tracker.mgtracker.org:2710/announce
udp://tracker.openbittorrent.com:80/announce
udp://tracker.opentrackr.org:1337/announce
udp://tracker.pirateparty.gr:6969/announce
udp://tracker.pomf.se:80/announce
udp://tracker.sktorrent.net:6969/announce
udp://tracker.trackerfix.com:80/announce
udp://tracker.x4w.co:6969/announce
udp://tracker.zer0day.to:1337/announce
udp://tracker4.piratux.com:6969/announce

Similar Torrents

Last Downloads Torrents:

pligg beta 9 9 bridget jones baby nl ita seconda guerra mondiale les echos emotional intelligence e i by luke jermay kygo cloud nine live

SnowTorrent