To download this torrent Locke 2013 (1080p Bluray x265 HEVC 10bit AAC 5.1 apekat), you need a BitTorrent client!

"Locke 2013 (1080p Bluray x265 HEVC 10bit AAC 5.1 apekat)"

Hash: 17de0f16696b638c6908c5f0fdcc03292cce67e4

Found on: Torrentfunk, Seedpeer, Limetorrents, Yourbittorrent, Torrentroom
Torrent Details Torrent found on:

Hash: 17DE0F16696B638C6908C5F0FDCC03292CCE67E4
Source: Retail Bluray Locke 2013 in 1080p, encoded with x265 in HEVC and AAC 5.1 English +
Extras, with subtitles! Encoded using the time consuming 2 pass, 10 bit color at 2000 kbps, from a Blu-ray
source, for the highest quality possible. MediaInfo
General Unique ID : 173305691036227757615289146682353854040 (0x82617644F900A2528000E85DBD0B2658)
Complete name : Locke 2013 (1080p x265 10bit apekat).mkv Format : Matroska Format version : Version 4 /
Version 2 File size : 1.43 GiB Duration : 1h 24mn Overall bit rate : 2 411 Kbps Movie
name : Locke Encoded date : UTC 2016-06-24 20:43:17 Writing application : mkvmerge v9.0.1 ('Obstacles')
64bit Writing library : libebml v1.3.3 + libmatroska v1.4.4 Video ID : 1 Format
: HEVC Format/Info : High Efficiency Video Coding Format profile : Main /* */@Main Codec ID :
V_MPEGH/ISO/HEVC Duration : 1h 24mn Bit rate : 1 989 Kbps Width : 1 920 pixels Height :
800 pixels Display aspect ratio : 2.40:1 Frame rate mode : Constant Frame rate : 23.976
(24000/1001) fps Color space : YUV Chroma subsampling : 4:2:0 Bit depth : 10 bits
Bits/(Pixel*Frame) : 0.054 Stream size : 1.18 GiB (83%) Writing library : x265
1.9+200-6098ba3e0cf16b11: 10bit Encoding settings : wpp / ctu=64 / min-cu-size=8 /
max-tu-size=32 / tu-intra-depth=1 / tu-inter-depth=1 / me=1 / subme=2 / merange=57 / no-rect / no-amp / max-merge=2 /
temporal-mvp / no-early-skip / recursion-skip / rdpenalty=0 / no-tskip / no-tskip-fast / strong-intra-smoothing /
no-lossless / no-cu-lossless / no-constrained-intra / no-fast-intra / open-gop / no-temporal-layers / interlace=0 /
keyint=250 / min-keyint=23 / scenecut=40 / rc-lookahead=20 / lookahead-slices=5 / bframes=4 / bframe-bias=0 / b-adapt=2
/ ref=3 / limit-refs=3 / no-limit-modes / weightp / no-weightb / aq-mode=1 / qg-size=32 / aq-strength=1.00 / cbqpoffs=0
/ crqpoffs=0 / rd=3 / psy-rd=2.00 / rdoq-level=0 / psy-rdoq=0.00 / no-rd-refine / signhide / deblock=0:0 / sao /
no-sao-non-deblock / b-pyramid / cutree / no-intra-refresh / rc=2 / pass / bitrate=1989 / qcomp=0.60 / qpmin=0 /
qpmax=51 / qpstep=4 / cplxblur=20.0 / qblur=0.5 / ipratio=1.40 / pbratio=1.30 Default : Yes Forced : No
Audio #1 ID : 2 Format : AAC Format/Info : Advanced Audio Codec Format
profile : LC Codec ID : A_AAC Duration : 1h 24mn Bit rate : 327 Kbps Channel(s) : 6
channels Channel positions : Front: L C R, Side: L R, LFE Sampling rate : 48.0 KHz Frame rate :
46.875 fps (1024 spf) Compression mode : Lossy Delay relative to video : 20ms Stream size : 199
MiB (14%) Title : English 5.1 Language : English Default : Yes Forced : No Audio #2 ID : 3 Format : AAC Format/Info : Advanced Audio Codec Format profile :
HE-AAC / LC Codec ID : A_AAC Duration : 1h 24mn Bit rate : 66.2 Kbps Channel(s) : 2
channels Channel positions : Front: L R Sampling rate : 48.0 KHz / 24.0 KHz Frame rate : 23.438
fps (1024 spf) Compression mode : Lossy Delay relative to video : 40ms Stream size : 39.9 MiB
(3%) Title : Audio Commentary with Director Steven Knight Language : English Default : No
Forced : No Text #1 ID : 4 Format : VobSub Muxing mode : zlib Codec ID
: S_VOBSUB Codec ID/Info : Picture based subtitle format used on DVDs Duration : 1h 16mn Bit
rate : 9 653 bps Count of elements : 1204 Stream size : 5.26 MiB (0%) Language : English
Default : No Forced : No Text #2 ID : 5 Format : VobSub Muxing mode :
zlib Codec ID : S_VOBSUB Codec ID/Info : Picture based subtitle format used on DVDs Duration :
1h 18mn Bit rate : 10.2 Kbps Count of elements : 1322 Stream size : 5.71 MiB (0%) Title
: SDH Language : English Default : No Forced : No Text #3 ID : 6
Format : VobSub Muxing mode : zlib Codec ID : S_VOBSUB Codec ID/Info : Picture based subtitle
format used on DVDs Duration : 1h 17mn Bit rate : 8 643 bps Count of elements : 1225
Stream size : 4.79 MiB (0%) Language : Spanish Default : No Forced : No Menu 00:00:00.000 : en:Chapter 01 00:03:38.468 : en:Chapter 02 00:09:22.728 : en:Chapter 03
00:15:00.983 : en:Chapter 04 00:21:20.529 : en:Chapter 05 00:26:00.225 : en:Chapter 06
00:30:32.038 : en:Chapter 07 00:37:23.866 : en:Chapter 08 00:43:03.539 : en:Chapter 09
00:49:57.411 : en:Chapter 10 00:56:08.406 : en:Chapter 11 00:59:37.532 : en:Chapter 12
01:04:29.657 : en:Chapter 13 01:10:05.659 : en:Chapter 14 01:15:32.152 : en:Chapter 15
01:18:31.039 : en:Chapter 16

Limetorrents

LockeIvan Locke (Hardy) has worked diligently to craft the life he has envisioned, dedicating himself to the job that he loves and the family he adores. On the eve of the biggest challenge of his career, Ivan receives a phone call that sets in motion a series of events that will unravel his family, job, and soul. All taking place over the course of one absolutely riveting car ride, LOCKE is an exploration of how one decision can lead to the complete collapse of a life. Directed by acclaimed filmmaker Steven Knight (EASTERN PROMISES, DIRTY PRETTY THINGS) and driven by an unforgettable performance by Tom Hardy, LOCKE is a thrillingly unique cinematic experience of a man fighting to salvage all that is important to him.(C) a24

Yourbittorrent

This torrent will be downloaded from trackers:
udp://p4p.arenabg.com:1337/announce
udp://9.rarbg.me:2710/announce
udp://glotorrents.pw:6969/announce
udp://p4p.arenabg.com:1337/announce
udp://tracker.coppersurfer.tk:6969/announce
udp://tracker.openbittorrent.com:80/announce
udp://tracker.opentrackr.org:1337/announce
udp://tracker.publicbt.com:80/announce

Last Downloads Torrents:

spanish doll dp无套內射电影 girlvania full game dll files fixer premium another country rod stewart the green berets 日本女性の外性器

SnowTorrent